<svg xmlns="http://www.w3.org/2000/svg">
<defs>
<font
   id="EmbeddedFont_1"
   horiz-adv-x="2048"
   horiz-origin-x="0"
   horiz-origin-y="0"
   vert-origin-x="45"
   vert-origin-y="90"
   vert-adv-y="90">
   <font-face
   font-family="Passion One embedded"
   units-per-em="2048"
   font-weight="normal"
   font-style="normal"
   ascent="1693"
   descent="529"
   id="font-face10" />
   <missing-glyph
   horiz-adv-x="2048"
   d="M 0,0 L 2047,0 2047,2047 0,2047 0,0 Z"
   id="missing-glyph12" />
   <glyph
   unicode="u"
   horiz-adv-x="848"
   d="M 305,-20 C 143,-20 61,70 61,250 L 61,982 410,982 410,334 C 410,300 425,283 455,283 493,283 525,293 551,312 L 551,982 895,982 895,5 569,5 569,76 561,76 C 486,12 401,-20 305,-20 Z"
   id="glyph14" />
   <glyph
   unicode="s"
   horiz-adv-x="715"
   d="M 8,692 C 8,791 39,868 99,924 160,979 244,1007 350,1007 457,1007 565,993 674,966 L 639,681 C 500,712 406,728 358,728 330,728 315,716 315,693 315,678 331,664 363,652 472,613 554,567 609,517 665,466 692,391 692,289 692,188 666,112 614,59 563,6 483,-20 376,-20 269,-20 162,-6 55,21 L 78,298 C 214,261 303,242 343,242 383,242 403,252 403,271 403,290 388,305 358,316 237,362 148,412 92,465 36,517 8,593 8,692 Z"
   id="glyph16" />
   <glyph
   unicode="r"
   horiz-adv-x="609"
   d="M 401,551 L 401,0 61,0 61,981 360,981 381,922 389,922 C 421,958 452,980 484,991 516,1001 569,1006 641,1006 L 627,678 532,678 C 479,678 444,670 427,654 410,637 401,603 401,551 Z"
   id="glyph18" />
   <glyph
   unicode="p"
   horiz-adv-x="874"
   d="M 406,22 L 406,-281 61,-281 61,981 344,981 365,920 375,920 C 413,976 488,1004 600,1004 712,1004 791,965 837,887 882,809 905,681 905,504 905,326 881,194 833,107 784,20 695,-23 565,-23 505,-23 455,-8 414,22 L 406,22 Z M 550,308 C 555,332 558,355 559,379 560,402 561,446 561,511 561,576 556,626 547,661 537,696 518,713 488,713 459,713 430,705 401,688 L 401,264 C 427,252 452,245 476,245 500,245 517,250 527,259 538,268 545,284 550,308 Z"
   id="glyph20" />
   <glyph
   unicode="o"
   horiz-adv-x="875"
   d="M 45,495 C 45,675 80,805 148,886 217,966 325,1007 472,1007 619,1007 726,967 793,888 859,809 893,678 893,497 893,316 860,185 795,103 729,21 622,-20 473,-20 324,-20 216,21 147,103 79,185 45,316 45,495 Z M 538,689 C 529,716 507,730 471,730 436,730 413,716 403,689 394,662 389,604 389,517 L 389,468 C 389,371 394,308 403,279 413,250 435,236 470,236 505,236 527,250 537,279 546,308 551,367 551,455 L 551,515 C 551,604 546,662 538,689 Z"
   id="glyph22" />
   <glyph
   unicode="n"
   horiz-adv-x="848"
   d="M 403,910 C 479,974 561,1006 651,1006 741,1006 805,985 841,944 877,902 895,839 895,756 L 895,0 547,0 547,639 C 547,673 532,690 502,690 464,690 431,681 406,662 L 406,0 61,0 61,981 375,981 395,910 403,910 Z"
   id="glyph24" />
   <glyph
   unicode="k"
   horiz-adv-x="874"
   d="M 907,0 L 528,0 403,377 395,377 395,0 61,0 61,1313 399,1313 399,590 408,590 557,981 915,981 709,492 907,0 Z"
   id="glyph26" />
   <glyph
   unicode="i"
   horiz-adv-x="371"
   d="M 408,0 L 70,0 70,971 408,971 408,0 Z M 96,1049 C 68,1073 53,1113 53,1168 53,1222 68,1263 96,1289 125,1315 172,1328 238,1328 303,1328 350,1315 379,1289 408,1263 422,1223 422,1169 422,1115 408,1075 379,1050 350,1025 303,1012 238,1012 172,1012 125,1024 96,1049 Z"
   id="glyph28" />
   <glyph
   unicode="h"
   horiz-adv-x="848"
   d="M 412,910 C 487,974 568,1006 655,1006 743,1006 805,985 841,944 877,902 895,839 895,756 L 895,0 547,0 547,639 C 547,673 532,690 502,690 464,690 431,681 406,662 L 406,0 61,0 61,1313 403,1313 403,910 412,910 Z"
   id="glyph30" />
   <glyph
   unicode="c"
   horiz-adv-x="689"
   d="M 490,707 C 450,707 423,689 410,653 396,617 389,560 389,484 389,407 396,352 409,318 422,284 449,267 490,267 532,267 586,274 653,289 L 690,27 C 596,-4 512,-20 438,-20 309,-20 211,24 144,111 78,198 45,321 45,478 45,635 79,762 147,860 216,957 315,1006 444,1006 541,1006 629,990 707,957 L 670,656 C 591,690 531,707 490,707 Z"
   id="glyph32" />
   <glyph
   unicode="b"
   horiz-adv-x="874"
   d="M 586,1004 C 714,1004 799,967 842,892 884,818 905,690 905,509 905,329 883,195 838,109 793,23 705,-20 573,-20 471,-20 399,7 358,60 L 350,60 330,1 61,1 61,1314 403,1314 403,959 412,959 C 457,989 515,1004 586,1004 Z M 550,309 C 555,333 558,356 559,379 560,403 561,447 561,511 561,576 556,626 547,661 537,696 518,713 488,713 459,713 430,705 401,689 L 401,265 C 427,252 452,246 476,246 500,246 517,251 527,260 538,269 545,285 550,309 Z"
   id="glyph34" />
   <glyph
   unicode="a"
   horiz-adv-x="848"
   d="M 801,726 L 791,302 C 791,276 797,258 810,249 823,241 845,236 877,236 L 846,-12 C 767,-17 723,-20 715,-20 614,-20 550,15 522,85 L 512,85 C 461,15 384,-20 279,-20 198,-20 136,6 93,58 50,110 29,181 29,271 29,384 64,463 134,506 204,550 315,579 467,593 L 467,642 C 467,680 448,699 410,699 344,699 242,679 102,640 L 51,939 C 226,984 371,1006 487,1006 603,1006 685,984 731,939 778,894 801,823 801,726 Z M 406,220 C 456,220 481,246 481,300 L 481,400 C 431,393 395,383 374,368 353,354 342,330 342,296 342,245 363,220 406,220 Z"
   id="glyph36" />
   <glyph
   unicode="E"
   horiz-adv-x="742"
   d="M 778,0 L 90,0 90,1272 799,1272 778,959 440,959 440,768 733,768 733,498 440,498 440,287 799,287 778,0 Z"
   id="glyph38" />
   <glyph
   unicode="."
   horiz-adv-x="398"
   d="M 154,139 C 154,194 168,234 197,261 225,287 271,301 334,301 397,301 442,287 471,261 500,234 514,192 514,135 514,30 454,-23 334,-23 214,-23 154,31 154,139 Z"
   id="glyph40" />
  </font>
 </defs>
 <defs
   id="defs96">
  <font
   id="EmbeddedFont_2"
   horiz-adv-x="2048"
   horiz-origin-x="0"
   horiz-origin-y="0"
   vert-origin-x="45"
   vert-origin-y="90"
   vert-adv-y="90">
   <font-face
   font-family="Squada One embedded"
   units-per-em="2048"
   font-weight="normal"
   font-style="normal"
   ascent="1746"
   descent="397"
   id="font-face45" />
   <missing-glyph
   horiz-adv-x="2048"
   d="M 0,0 L 2047,0 2047,2047 0,2047 0,0 Z"
   id="missing-glyph47" />
   <glyph
   unicode="ü"
   horiz-adv-x="769"
   d="M 557,1000 L 831,1000 831,0 582,0 582,51 C 539,3 475,-21 389,-21 L 346,-21 C 177,-21 92,70 92,250 L 92,1000 367,1000 367,217 C 367,206 370,196 378,188 385,180 395,176 406,176 L 518,176 C 529,176 538,180 546,188 553,196 557,206 557,217 L 557,1000 Z M 296,1325 C 328,1325 355,1313 378,1290 400,1267 412,1239 412,1207 412,1175 400,1148 378,1125 355,1103 328,1092 296,1092 264,1092 236,1103 213,1125 190,1148 178,1175 178,1207 178,1239 190,1267 213,1290 236,1313 264,1325 296,1325 Z M 628,1325 C 660,1325 687,1313 710,1290 732,1267 743,1239 743,1207 743,1175 732,1148 710,1125 687,1103 660,1092 628,1092 596,1092 568,1103 545,1125 522,1148 510,1175 510,1207 510,1239 522,1267 545,1290 568,1313 596,1325 628,1325 Z"
   id="glyph49" />
   <glyph
   unicode="ß"
   horiz-adv-x="874"
   d="M 829,699 C 894,654 926,576 926,467 L 926,270 C 926,90 841,0 672,0 L 506,0 506,217 633,217 C 644,217 653,221 660,229 668,238 672,247 672,258 L 672,541 C 672,552 668,561 660,570 653,578 644,582 633,582 L 518,582 518,803 621,803 C 631,803 641,807 648,815 656,824 659,833 659,844 L 659,1082 C 659,1093 656,1102 648,1110 641,1119 631,1123 621,1123 L 483,1123 C 472,1123 463,1119 456,1110 448,1102 444,1093 444,1082 L 444,0 68,0 68,217 188,217 188,574 80,574 80,791 188,791 188,1076 C 188,1256 273,1346 442,1346 L 659,1346 C 829,1346 913,1256 913,1076 L 913,920 C 913,813 885,740 829,699 Z"
   id="glyph51" />
   <glyph
   unicode="v"
   horiz-adv-x="821"
   d="M 553,1000 L 819,1000 600,0 238,0 18,1000 285,1000 420,223 553,1000 Z"
   id="glyph53" />
   <glyph
   unicode="u"
   horiz-adv-x="769"
   d="M 557,1000 L 831,1000 831,0 582,0 582,51 C 539,3 475,-21 389,-21 L 346,-21 C 177,-21 92,70 92,250 L 92,1000 367,1000 367,217 C 367,206 370,196 378,188 385,180 395,176 406,176 L 518,176 C 529,176 538,180 546,188 553,196 557,206 557,217 L 557,1000 Z"
   id="glyph55" />
   <glyph
   unicode="t"
   horiz-adv-x="478"
   d="M 457,158 L 539,158 539,-20 346,-20 C 177,-20 92,70 92,250 L 92,1217 367,1217 367,1000 539,1000 539,801 367,801 367,257 C 367,218 374,192 389,179 404,165 427,158 457,158 Z"
   id="glyph57" />
   <glyph
   unicode="s"
   horiz-adv-x="768"
   d="M 563,627 C 733,627 817,537 817,356 L 817,250 C 817,69 733,-21 563,-21 L 336,-21 C 167,-21 82,69 82,250 L 82,313 336,313 336,223 C 336,212 340,203 347,194 355,186 364,182 375,182 L 543,182 C 554,182 563,186 570,194 578,203 582,212 582,223 L 582,346 C 582,357 578,367 570,375 563,383 554,387 543,387 L 332,387 C 162,387 78,477 78,657 L 78,750 C 78,930 162,1020 332,1020 L 547,1020 C 716,1020 801,930 801,750 L 801,713 547,713 547,776 C 547,787 543,797 536,805 528,813 519,817 508,817 L 352,817 C 341,817 332,813 325,805 317,797 313,787 313,776 L 313,668 C 313,657 317,647 325,639 332,631 341,627 352,627 L 563,627 Z"
   id="glyph59" />
   <glyph
   unicode="r"
   horiz-adv-x="504"
   d="M 518,1020 L 571,1020 571,754 436,754 C 390,754 367,730 367,682 L 367,0 92,0 92,1000 342,1000 342,903 C 382,981 440,1020 518,1020 Z"
   id="glyph61" />
   <glyph
   unicode="o"
   horiz-adv-x="769"
   d="M 831,750 L 831,250 C 831,70 747,-20 578,-20 L 346,-20 C 177,-20 92,70 92,250 L 92,750 C 92,930 177,1020 346,1020 L 578,1020 C 747,1020 831,930 831,750 Z M 557,193 L 557,809 C 557,820 553,830 546,838 538,846 529,850 518,850 L 406,850 C 395,850 385,846 378,838 370,830 367,820 367,809 L 367,193 C 367,182 370,172 378,164 385,156 395,152 406,152 L 518,152 C 529,152 538,156 546,164 553,172 557,182 557,193 Z"
   id="glyph63" />
   <glyph
   unicode="n"
   horiz-adv-x="769"
   d="M 367,0 L 92,0 92,1000 342,1000 342,948 C 384,996 449,1020 535,1020 L 578,1020 C 747,1020 831,930 831,750 L 831,0 557,0 557,782 C 557,793 553,803 546,811 538,819 529,823 518,823 L 406,823 C 395,823 385,819 378,811 370,803 367,793 367,782 L 367,0 Z"
   id="glyph65" />
   <glyph
   unicode="l"
   horiz-adv-x="292"
   d="M 367,0 L 92,0 92,1325 367,1325 367,0 Z"
   id="glyph67" />
   <glyph
   unicode="k"
   horiz-adv-x="848"
   d="M 879,1000 L 674,530 911,0 637,0 449,416 367,416 367,0 92,0 92,1325 367,1325 367,641 459,641 608,1000 879,1000 Z"
   id="glyph69" />
   <glyph
   unicode="i"
   horiz-adv-x="318"
   d="M 372,1124 C 342,1095 307,1081 266,1081 225,1081 190,1096 160,1125 130,1154 115,1190 115,1232 115,1273 130,1309 160,1338 190,1367 225,1382 266,1382 307,1382 342,1367 372,1338 401,1309 416,1273 416,1231 416,1188 401,1153 372,1124 Z M 129,0 L 129,1000 403,1000 403,0 129,0 Z"
   id="glyph71" />
   <glyph
   unicode="h"
   horiz-adv-x="769"
   d="M 367,0 L 92,0 92,1325 367,1325 367,971 C 408,1004 464,1020 535,1020 L 578,1020 C 747,1020 831,930 831,750 L 831,0 557,0 557,782 C 557,793 553,803 546,811 538,819 529,823 518,823 L 406,823 C 382,823 369,811 367,787 L 367,0 Z"
   id="glyph73" />
   <glyph
   unicode="g"
   horiz-adv-x="769"
   d="M 831,1000 L 831,-76 C 831,-256 747,-346 578,-346 L 373,-346 C 203,-346 119,-256 119,-76 L 119,-43 367,-43 367,-108 C 367,-119 370,-129 378,-137 385,-145 395,-149 406,-149 L 518,-149 C 529,-149 538,-145 546,-137 553,-129 557,-119 557,-108 L 557,97 C 515,64 459,47 389,47 L 346,47 C 177,47 92,137 92,318 L 92,750 C 92,930 177,1020 346,1020 L 389,1020 C 487,1020 558,989 600,926 L 600,1000 831,1000 Z M 557,285 L 557,782 C 557,793 553,803 546,811 538,819 529,823 518,823 L 406,823 C 395,823 385,819 378,811 370,803 367,793 367,782 L 367,285 C 367,274 370,264 378,256 385,248 395,244 406,244 L 518,244 C 529,244 538,248 546,256 553,264 557,274 557,285 Z"
   id="glyph75" />
   <glyph
   unicode="f"
   horiz-adv-x="478"
   d="M 457,1158 C 427,1158 404,1151 389,1137 374,1123 367,1097 367,1059 L 367,1000 539,1000 539,793 367,793 367,0 92,0 92,1076 C 92,1256 177,1346 346,1346 L 539,1346 539,1158 457,1158 Z"
   id="glyph77" />
   <glyph
   unicode="e"
   horiz-adv-x="769"
   d="M 578,1020 C 747,1020 831,930 831,750 L 831,426 367,426 367,217 C 367,206 370,197 378,188 385,180 395,176 406,176 L 518,176 C 529,176 538,180 546,188 553,197 557,206 557,217 L 557,328 831,328 831,250 C 831,70 747,-21 578,-21 L 346,-21 C 177,-21 92,70 92,250 L 92,750 C 92,930 177,1020 346,1020 L 578,1020 Z M 367,606 L 557,606 557,791 C 557,802 553,811 546,819 538,827 529,832 518,832 L 406,832 C 395,832 385,827 378,819 370,811 367,802 367,791 L 367,606 Z"
   id="glyph79" />
   <glyph
   unicode="c"
   horiz-adv-x="769"
   d="M 831,606 L 557,606 557,782 C 557,793 553,803 546,811 538,819 529,823 518,823 L 406,823 C 395,823 385,819 378,811 370,803 367,793 367,782 L 367,217 C 367,206 370,196 378,188 385,180 395,176 406,176 L 518,176 C 529,176 538,180 546,188 553,196 557,206 557,217 L 557,393 831,393 831,250 C 831,70 747,-21 578,-21 L 346,-21 C 177,-21 92,70 92,250 L 92,750 C 92,930 177,1020 346,1020 L 578,1020 C 747,1020 831,930 831,750 L 831,606 Z"
   id="glyph81" />
   <glyph
   unicode="a"
   horiz-adv-x="769"
   d="M 600,1000 L 831,1000 831,0 600,0 600,74 C 558,11 487,-21 389,-21 L 346,-21 C 177,-21 92,70 92,250 L 92,750 C 92,930 177,1020 346,1020 L 389,1020 C 487,1020 558,989 600,926 L 600,1000 Z M 557,217 L 557,782 C 557,793 553,803 546,811 538,819 529,823 518,823 L 406,823 C 395,823 385,819 378,811 370,803 367,793 367,782 L 367,217 C 367,206 370,196 378,188 385,180 395,176 406,176 L 518,176 C 529,176 538,180 546,188 553,196 557,206 557,217 Z"
   id="glyph83" />
   <glyph
   unicode="P"
   horiz-adv-x="795"
   d="M 619,1325 C 788,1325 872,1235 872,1055 L 872,791 C 872,610 788,520 619,520 L 387,520 387,0 100,0 100,1325 619,1325 Z M 586,758 L 586,1087 C 586,1098 582,1108 574,1116 567,1124 558,1128 547,1128 L 387,1128 387,717 547,717 C 558,717 567,721 574,729 582,737 586,747 586,758 Z"
   id="glyph85" />
   <glyph
   unicode="M"
   horiz-adv-x="1271"
   d="M 387,0 L 100,0 100,1076 C 100,1256 185,1346 354,1346 L 506,1346 C 606,1346 677,1313 719,1248 758,1313 829,1346 932,1346 L 1083,1346 C 1253,1346 1337,1256 1337,1076 L 1337,0 1051,0 1051,1100 C 1051,1111 1047,1121 1039,1129 1032,1137 1023,1141 1012,1141 L 901,1141 C 890,1141 881,1137 873,1129 866,1121 862,1111 862,1100 L 862,0 575,0 575,1100 C 575,1111 572,1121 564,1129 557,1137 548,1141 537,1141 L 426,1141 C 415,1141 406,1137 398,1129 391,1121 387,1111 387,1100 L 387,0 Z"
   id="glyph87" />
   <glyph
   unicode="K"
   horiz-adv-x="901"
   d="M 928,1325 L 702,717 971,0 678,0 481,524 389,524 389,0 102,0 102,1325 389,1325 389,770 459,770 666,1325 928,1325 Z"
   id="glyph89" />
   <glyph
   unicode="D"
   horiz-adv-x="822"
   d="M 629,1325 C 798,1325 883,1235 883,1055 L 883,270 C 883,90 798,0 629,0 L 102,0 102,1325 629,1325 Z M 596,238 L 596,1089 C 596,1100 592,1110 585,1118 577,1126 568,1130 557,1130 L 389,1130 389,197 557,197 C 568,197 577,201 585,209 592,217 596,227 596,238 Z"
   id="glyph91" />
   <glyph
   unicode=" "
   horiz-adv-x="423"
   id="glyph93" />
  </font>
</defs>
</svg>
